Abhay (2020) Hindi 720p S02 Ep 8 - The Final Trap (S02 Finale)

  • Category TV
  • Type HD
  • Language Hindi
  • Total size 292.4 MB
  • Uploaded By krishh1337
  • Downloads 11785
  • Last checked Oct. 05th '20
  • Date uploaded Oct. 01st '20
  • Seeders 81
  • Leechers 9

Infohash : 4E71CDD0C722E97FBBACF53221A4788EC0271BAD



Format : Matroska
Format version : Version 4
File size : 292 MiB
Duration : 42 min 20 s
Overall bit rate : 966 kb/s

Video
ID : 1
Format : AVC
Format/Info : Advanced Video Codec
Format profile : [email protected]
Format settings : CABAC / 4 Ref Frames
Format settings, CABAC : Yes
Format settings, Reference frames : 4 frames
Codec ID : V_MPEG4/ISO/AVC
Duration : 42 min 20 s
Bit rate : 880 kb/s
Width : 1 280 pixels
Height : 544 pixels
Display aspect ratio : 2.35:1
Frame rate mode : Constant
Frame rate : 30.000 FPS
Color space : YUV
Chroma subsampling : 4:2:0
Bit depth : 8 bits
Scan type : Progressive
Bits/(Pixel*Frame) : 0.042
Stream size : 263 MiB (90%)

Audio
ID : 2
Format : AAC LC
Format/Info : Advanced Audio Codec Low Complexity
Codec ID : A_AAC-2
Duration : 42 min 20 s
Bit rate : 92.9 kb/s
Channel(s) : 2 channels
Channel layout : L R
Sampling rate : 44.1 kHz
Frame rate : 43.066 FPS (1024 SPF)
Compression mode : Lossy
Stream size : 28.1 MiB (10%)
Language : Hindi
Default : Yes
Forced : No

Files:

  • Abhay (2020) Hindi 720p S02 Ep 8 - The Final Trap (S02 Finale).mkv (292.4 MB)

Code:

  • udp://exodus.desync.com:6969/announce
  • udp://explodie.org:6969/announce
  • udp://tracker.tiny-vps.com:6969/announce
  • udp://tracker.torrent.eu.org:451/announce
  • udp://ipv4.tracker.harry.lu:80/announce
  • http://explodie.org:6969/announce
  • http://tracker.opentrackr.org:1337/announce
  • udp://9.rarbg.to:2800/announce
  • http://tracker3.itzmx.com:6961/announce
  • http://tracker1.itzmx.com:8080/announce
  • http://t.nyaatracker.com:80/announce
  • udp://open.stealth.si:80/announce
  • UDP://TRACKER.COPPERSURFER.TK:6969/ANNOUNCE
  • UDP://TRACKER.OPENTRACKR.ORG:1337/ANNOUNCE
  • UDP://TRACKER.LEECHERS-PARADISE.ORG:6969/ANNOUNCE