Chuhe Dani [Tasher Ghaw ](2020) Hoichoi 720p WEBRip Dual [ Hin+Ben ] Esub

  • Category Movies
  • Type Dubs/Dual Audio
  • Language Hindi
  • Total size 316.3 MB
  • Uploaded By krishh1337
  • Downloads 4601
  • Last checked Oct. 18th '20
  • Date uploaded Oct. 15th '20
  • Seeders 49
  • Leechers 7

Infohash : B4E5A1CF0D16DB24AFD1B2948D7E2159A0B94364



Chuhe Dani (Tasher Ghawr):
Yes, Sujata is an ordinary housewife but if you think that you know her, you are terribly mistaken !!

DIRECTOR:Sudipto Roy
STARRING:Swastika Mukherjee.

Format : Matroska
Format version : Version 4
File size : 296 MiB
Duration : 46 min 52 s
Overall bit rate mode : Variable
Overall bit rate : 882 kb/s

Video
ID : 1
Format : AVC
Format/Info : Advanced Video Codec
Format profile : [email protected]
Format settings : CABAC / 3 Ref Frames
Format settings, CABAC : Yes
Format settings, Reference frames : 3 frames
Codec ID : V_MPEG4/ISO/AVC
Duration : 46 min 52 s
Bit rate mode : Variable
Bit rate : 690 kb/s
Maximum bit rate : 4 000 kb/s
Width : 1 280 pixels
Height : 720 pixels
Display aspect ratio : 16:9
Frame rate mode : Constant
Frame rate : 24.000 FPS
Color space : YUV
Chroma subsampling : 4:2:0
Bit depth : 8 bits
Scan type : Progressive
Bits/(Pixel*Frame) : 0.031
Stream size : 231 MiB (78%)
Default : Yes
Forced : No

Audio #1
ID : 2
Format : AAC LC
Format/Info : Advanced Audio Codec Low Complexity
Codec ID : A_AAC-2
Duration : 46 min 52 s
Bit rate : 64.0 kb/s
Channel(s) : 2 channels
Channel layout : L R
Sampling rate : 48.0 kHz
Frame rate : 46.875 FPS (1024 SPF)
Compression mode : Lossy
Delay relative to video : -33 ms
Stream size : 21.5 MiB (7%)
Language : Hindi
Default : Yes
Forced : Yes

Audio #2
ID : 3
Format : AAC LC
Format/Info : Advanced Audio Codec Low Complexity
Codec ID : A_AAC-2
Duration : 46 min 52 s
Bit rate : 125 kb/s
Channel(s) : 2 channels
Channel layout : L R
Sampling rate : 48.0 kHz
Frame rate : 46.875 FPS (1024 SPF)
Compression mode : Lossy
Delay relative to video : -33 ms
Stream size : 42.0 MiB (14%)
Language : Bengali
Default : No
Forced : No

Text
ID : 4
Format : UTF-8
Codec ID : S_TEXT/UTF8
Codec ID/Info : UTF-8 Plain Text
Duration : 44 min 47 s
Bit rate : 42 b/s
Count of elements : 447
Stream size : 13.9 KiB (0%)
Default : Yes
Forced : No

Files:

  • Chuhe Dani [Tasher Ghaw ](2020) Hoichoi 720p WEBRip Dual [ Hin+Ben ] Esub.mkv (316.3 MB)

Code:

  • udp://exodus.desync.com:6969/announce
  • udp://explodie.org:6969/announce
  • udp://tracker.tiny-vps.com:6969/announce
  • udp://tracker.torrent.eu.org:451/announce
  • udp://ipv4.tracker.harry.lu:80/announce
  • http://explodie.org:6969/announce
  • http://tracker.opentrackr.org:1337/announce
  • udp://9.rarbg.to:2800/announce
  • http://tracker3.itzmx.com:6961/announce
  • http://tracker1.itzmx.com:8080/announce
  • http://t.nyaatracker.com:80/announce
  • udp://open.stealth.si:80/announce
  • UDP://TRACKER.COPPERSURFER.TK:6969/ANNOUNCE
  • UDP://TRACKER.OPENTRACKR.ORG:1337/ANNOUNCE
  • UDP://TRACKER.LEECHERS-PARADISE.ORG:6969/ANNOUNCE