The Banker (2020).720p.H264.ita.eng.Ac3-5.1.sub.ita.eng-MIRCrew

  • Category Movies
  • Type HD
  • Language English
  • Total size 2.3 GB
  • Uploaded By robbyrs
  • Downloads 672
  • Last checked Oct. 19th '20
  • Date uploaded Oct. 16th '20
  • Seeders 71
  • Leechers 10

The Banker

Drama

In the 1960s, two entrepreneurs hatch an ingenious business plan to fight for housing integration—and equal access to the American Dream.

Infohash : 64E49C3334942E48FABD412499AF3883B4649146

The Banker (2020).720p.H264.ita.eng.Ac3-5.1.sub.ita.eng-MIRCrew


NO FOUND ONLY ORIGINAL RELEASE

My release is always in double track audio italian and Original audio
for select it use VLC or dvd player home
not use wmp

The Banker (2020)

Quality MIRCrew on HD 720p da 2,3 gb









Lingua originale inglese
Paese di produzione Stati Uniti d'America
Anno 2020
Dati tecnici Colore
Genere drammatico
Regia George Nolfi
Sceneggiatura Niceole R. Levy, George Nolfi



Anthony Mackie: Bernard Garrett
Nicholas Hoult: Matt Steiner
Nia Long: Eunice Garrett
Samuel L. Jackson: Joe Morris
Michael Harney: Melvin Belli
Colm Meaney: Patrick Barker
Paul Ben-Victor: Donald Silverthorne
Jessie Usher: Tony Jackson
Gregory Alan Williams: Britton Garrett
Rhoda Griffis: signora Barker



Bernard Garrett è un giovane afroamericano originario del Texas. Siamo negli anni '50 del Novecento e i neri, vittime di pregiudizi razziali, sono costretti a svolgere solo lavori umili a servizio dei bianchi.



In the 1960s two African-American entrepreneurs hire a working-class white man to pretend to be the head of their business empire while they pose as a janitor and chauffeur.















General

Complete name : The Banker (2020).720p.h264.ita.eng.sub.ita.eng-MIRCrew\The Banker (2020).720p.h264.ita.eng.sub.ita.eng-MIRCrew.mkv
Format : Matroska
Format version : Version 2
File size : 2.32 GiB
Duration : 2h 0mn
Overall bit rate : 2 759 Kbps
Movie name : MIRCrew
Encoded date : UTC 2020-03-20 08:47:41
Writing application : mkvmerge v5.8.0 ('No Sleep / Pillow') built on Sep 2 2012 15:37:04
Writing library : Lavf54.63.100
COMMENT : MIRCrew

Video
ID : 1
Format : AVC
Format/Info : Advanced Video Codec
Format profile : [email protected]
Format settings, CABAC : Yes
Format settings, ReFrames : 2 frames
Codec ID : V_MPEG4/ISO/AVC
Duration : 2h 0mn
Bit rate : 2 000 Kbps
Width : 1 280 pixels
Height : 528 pixels
Display aspect ratio : 2.40:1
Original display aspect ratio : 2.40:1
Frame rate mode : Variable
Frame rate : 23.976 fps
Color space : YUV
Chroma subsampling : 4:2:0
Bit depth : 8 bits
Scan type : Progressive
Bits/(Pixel*Frame) : 0.123
Stream size : 1.63 GiB (70%)
Title : MIRCrew
Writing library : x264 core 130 r2273
Encoding settings : cabac=1 / ref=2 / deblock=1:-1:-1 / analyse=0x1:0x131 / me=hex / subme=7 / psy=1 / psy_rd=1.00:0.10 / mixed_ref=0 / me_range=16 / chroma_me=1 / trellis=1 / 8x8dct=0 / cqm=0 / deadzone=21,11 / fast_pskip=1 / chroma_qp_offset=-3 / threads=9 / lookahead_threads=1 / sliced_threads=0 / nr=0 / decimate=1 / interlaced=0 / bluray_compat=0 / constrained_intra=0 / bframes=3 / b_pyramid=0 / b_adapt=1 / b_bias=0 / direct=3 / weightb=1 / open_gop=0 / weightp=2 / keyint=230 / keyint_min=23 / scenecut=40 / intra_refresh=0 / rc_lookahead=40 / rc=abr / mbtree=1 / bitrate=2000 / ratetol=1.0 / qcomp=0.60 / qpmin=10 / qpmax=69 / qpstep=4 / vbv_maxrate=24000 / vbv_bufsize=24000 / nal_hrd=none / ip_ratio=1.40 / aq=1:1.00
Language : Italian
Default : Yes
Forced : Yes
DURATION : 02:00:25.761000000
NUMBER_OF_FRAMES : 173245
NUMBER_OF_BYTES : 9082467854
_STATISTICS_WRITING_APP : mkvmerge v43.0.0 ('The Quartermaster') 64-bit
_STATISTICS_WRITING_DATE_UTC : 2020-03-20 08:47:41
_STATISTICS_TAGS : BPS DURATION NUMBER_OF_FRAMES NUMBER_OF_BYTES

Audio #1
ID : 2
Format : AC-3
Format/Info : Audio Coding 3
Mode extension : CM (complete main)
Codec ID : A_AC3
Duration : 2h 0mn
Bit rate mode : Constant
Bit rate : 384 Kbps
Channel(s) : 6 channels
Channel positions : Front: L C R, Side: L R, LFE
Sampling rate : 48.0 KHz
Bit depth : 16 bits
Compression mode : Lossy
Delay relative to video : -5ms
Stream size : 331 MiB (14%)
Title : Ita Ac3 5.1
Language : Italian
Default : No
Forced : No
DURATION : 02:00:25.792000000
NUMBER_OF_FRAMES : 225806
NUMBER_OF_BYTES : 346838016
_STATISTICS_WRITING_APP : mkvmerge v43.0.0 ('The Quartermaster') 64-bit
_STATISTICS_WRITING_DATE_UTC : 2020-03-20 08:47:41
_STATISTICS_TAGS : BPS DURATION NUMBER_OF_FRAMES NUMBER_OF_BYTES

Audio #2
ID : 3
Format : AC-3
Format/Info : Audio Coding 3
Mode extension : CM (complete main)
Codec ID : A_AC3
Duration : 2h 0mn
Bit rate mode : Constant
Bit rate : 384 Kbps
Channel(s) : 6 channels
Channel positions : Front: L C R, Side: L R, LFE
Sampling rate : 48.0 KHz
Bit depth : 16 bits
Compression mode : Lossy
Delay relative to video : -5ms
Stream size : 331 MiB (14%)
Title : Eng Ac3 5.1
Language : English
Default : No
Forced : No
DURATION : 02:00:25.792000000
NUMBER_OF_FRAMES : 225806
NUMBER_OF_BYTES : 346838016
_STATISTICS_WRITING_APP : mkvmerge v43.0.0 ('The Quartermaster') 64-bit
_STATISTICS_WRITING_DATE_UTC : 2020-03-20 08:47:41
_STATISTICS_TAGS : BPS DURATION NUMBER_OF_FRAMES NUMBER_OF_BYTES







Files:

The Banker (2020).720p.h264.ita.eng.sub.ita.eng-MIRCrew
  • The Banker (2020).720p.h264.ita.eng.sub.ita.eng-MIRCrew.eng.srt (130.4 KB)
  • The Banker (2020).720p.h264.ita.eng.sub.ita.eng-MIRCrew.ita.srt (128.1 KB)
  • The Banker (2020).720p.h264.ita.eng.sub.ita.eng-MIRCrew.mkv (2.3 GB)
  • The Banker (2020).720p.h264.ita.eng.sub.ita.eng-MIRCrew.srt (3.8 KB)

Code:

  • udp://tracker.torrent.eu.org:451/announce
  • udp://tracker.coppersurfer.tk:6969/announce
  • udp://tracker.torrent.eu.org:451/announce
  • udp://tracker.pirateparty.gr:6969/announce
  • udp://tracker.leechers-paradise.org:6969/announce
  • udp://tracker.cyberia.is:6969/announce
  • udp://tracker.iamhansen.xyz:2000/announce
  • udp://p4p.arenabg.com:1337/announce
  • udp://explodie.org:6969/announce
  • udp://tracker.opentrackr.org:1337/announce
  • udp://tracker.tiny-vps.com:6969/announce
  • udp://exodus.desync.com:6969/announce
  • udp://ipv4.tracker.harry.lu:80/announce
  • udp://open.stealth.si:80/announce
  • udp://9.rarbg.to:2710/announce