Warrior (2019) S02E03 (1080p AMZN WEBRip X265 HEVC 10Bit DD5.1 ESub) - [Musafirboy]

  • Category TV
  • Type HEVC/x265
  • Language English
  • Total size 672.1 MB
  • Uploaded By Musafirboy
  • Downloads 382
  • Last checked Oct. 21st '20
  • Date uploaded Oct. 18th '20
  • Seeders 19
  • Leechers 4

Infohash : 247733077D7AE3830D65DA7A066C6EA13E37EEA1






Warrior (2019) - S02E03
1080p AMZN WEBRip x265 HEVC 10Bit DD 5.1 ESub - [Musafirboy]













Source Information


Code:

Warrior.2019.S02E03.Not.How.We.Do.Business.1080p.AMZN.WEB-DL.DDP5.1.H.264-NTb (2.4 GB)


Media Information


Code:

General
Complete name : Warrior.S02E03.AMZN.WEBRip.1080p.HEVC.10Bit-[Musafirboy].mkv
Format : Matroska
Format version : Version 4
File size : 672 MiB
Duration : 48 min 10 s
Overall bit rate : 1 950 kb/s
Encoded date : UTC 2020-10-17 13:14:52

Video
Format : HEVC
Format/Info : High Efficiency Video Coding
Format profile : Main [email protected]@Main
Codec ID : V_MPEGH/ISO/HEVC
Duration : 48 min 10 s
Bit rate : 1 501 kb/s
Width : 1 920 pixels
Height : 1 080 pixels
Display aspect ratio : 16:9
Frame rate mode : Constant
Frame rate : 23.976 (24000/1001) FPS
Color space : YUV
Chroma subsampling : 4:2:0
Bit depth : 10 bits
Bits/(Pixel*Frame) : 0.030
Stream size : 517 MiB (77%)
Writing library : x265 3.2+9-971180b100f8:[Windows][GCC 9.2.0][64 bit] 10bit
Encoding settings : cpuid=1111039 / frame-threads=4 / numa-pools=24 / wpp / no-pmode / no-pme / no-psnr / no-ssim / log-level=2 / input-csp=1 / input-res=1920x1080 / interlace=0 / total-frames=69312 / level-idc=50 / high-tier=1 / uhd-bd=0 / ref=3 / no-allow-non-conformance / no-repeat-headers / annexb / no-aud / no-hrd / info / hash=0 / no-temporal-layers / open-gop / min-keyint=23 / keyint=250 / gop-lookahead=0 / bframes=4 / b-adapt=2 / b-pyramid / bframe-bias=0 / rc-lookahead=20 / lookahead-slices=6 / scenecut=40 / radl=0 / no-splice / no-intra-refresh / ctu=64 / min-cu-size=8 / no-rect / no-amp / max-tu-size=32 / tu-inter-depth=1 / tu-intra-depth=1 / limit-tu=0 / rdoq-level=0 / dynamic-rd=0.00 / no-ssim-rd / signhide / no-tskip / nr-intra=0 / nr-inter=0 / no-constrained-intra / strong-intra-smoothing / max-merge=3 / limit-refs=1 / no-limit-modes / me=1 / subme=5 / merange=57 / temporal-mvp / no-frame-dup / no-hme / weightp / no-weightb / no-analyze-src-pics / deblock=0:0 / sao / no-sao-non-deblock / rd=3 / selective-sao=4 / early-skip / rskip / no-fast-intra / no-tskip-fast / no-cu-lossless / b-intra / no-splitrd-skip / rdpenalty=0 / psy-rd=2.00 / psy-rdoq=0.00 / no-rd-refine / no-lossless / cbqpoffs=0 / crqpoffs=0 / rc=abr / bitrate=1500 / qcomp=0.60 / qpstep=4 / stats-write=0 / stats-read=2 / cplxblur=20.0 / qblur=0.5 / ipratio=1.40 / pbratio=1.30 / aq-mode=3 / aq-strength=0.30 / cutree / zone-count=0 / no-strict-cbr / qg-size=32 / no-rc-grain / qpmax=69 / qpmin=0 / no-const-vbv / sar=0 / overscan=0 / videoformat=5 / range=0 / colorprim=1 / transfer=1 / colormatrix=1 / chromaloc=0 / display-window=0 / cll=0,0 / min-luma=0 / max-luma=1023 / log2-max-poc-lsb=8 / vui-timing-info / vui-hrd-info / slices=1 / no-opt-qp-pps / no-opt-ref-list-length-pps / no-multi-pass-opt-rps / scenecut-bias=0.05 / no-opt-cu-delta-qp / no-aq-motion / no-hdr / no-hdr-opt / no-dhdr10-opt / no-idr-recovery-sei / analysis-reuse-level=5 / scale-factor=0 / refine-intra=0 / refine-inter=0 / refine-mv=1 / refine-ctu-distortion=0 / no-limit-sao / ctu-info=0 / no-lowpass-dct / refine-analysis-type=0 / copy-pic=1 / max-ausize-factor=1.0 / no-dynamic-refine / no-single-sei / no-hevc-aq / no-svt / no-field / qp-adaptation-range=1.00
Color range : Limited
Color primaries : BT.709
Transfer characteristics : BT.709
Matrix coefficients : BT.709
Encoded by : Musafirboy

Audio
Format : AC-3
Format/Info : Audio Coding 3
Commercial name : Dolby Digital
Codec ID : A_AC3
Duration : 48 min 10 s
Bit rate mode : Constant
Bit rate : 448 kb/s
Channel(s) : 6 channels
Channel layout : L R C LFE Ls Rs
Sampling rate : 48.0 kHz
Frame rate : 31.250 FPS (1536 SPF)
Compression mode : Lossy
Delay relative to video : 6 ms
Stream size : 154 MiB (23%)
Language : English

Subtitle
Format : UTF-8
Codec ID : S_TEXT/UTF8
Codec ID/Info : UTF-8 Plain Text
Duration : 48 min 0 s
Bit rate : 63 b/s
Count of elements : 828
Stream size : 22.3 KiB (0%)
Language : English






Files:

  • Warrior.S02E03.AMZN.WEBRip.1080p.HEVC.10Bit-[Musafirboy].mkv (672.1 MB)

Code:

  • udp://tracker.leechers-paradise.org:6969/announce
  • udp://tracker.coppersurfer.tk:6969/announce
  • udp://tracker.opentrackr.org:1337/announce
  • udp://p4p.arenabg.com:1337/announce
  • udp://9.rarbg.to:2710/announce
  • udp://9.rarbg.me:2710/announce
  • udp://exodus.desync.com:6969/announce
  • udp://tracker.cyberia.is:6969/announce
  • udp://open.stealth.si:80/announce
  • udp://tracker.tiny-vps.com:6969/announce
  • udp://retracker.lanta-net.ru:2710/announce
  • udp://tracker.torrent.eu.org:451/announce
  • udp://eddie4.nl:6969/announce