Archer S11E06 (2160p HULU WEB-DL x265 HEVC AI 10bit EAC3 5.1 Joy) [UTR]

  • Category Movies
  • Type HEVC/x265
  • Language English
  • Total size 686.9 MB
  • Uploaded By UTRCorp
  • Downloads 169
  • Last checked Oct. 22nd '20
  • Date uploaded Oct. 18th '20
  • Seeders 17
  • Leechers 7

Infohash : EED40E960B250C90F50B7AC9B83C458B79AEA3EA


Media Information
I refuse to be limited to the sources that the studios let us have. As such I used AI Inference Software and days of processing to create a new source sharp and clean of compression artifacts. Enjoy this world exclusive 4K Source from the good people at UTR - JoyBell

Media Information

Code:

General
Format : Matroska
Format version : Version 4 / Version 2
File size : 687 MiB
Duration : 22 min 33 s
Overall bit rate : 4 258 kb/s
Movie name : Archer S11E06 The Double Date [2160p x265 10bit Joy][UTR]
Encoded date : UTC 2020-10-17 08:49:04
Writing application : mkvmerge v39.0.0 ('In The Waiting Line') 64-bit
Writing library : libebml v1.3.9 + libmatroska v1.5.2

Video
ID : 1
Format : HEVC
Format/Info : High Efficiency Video Coding
Format profile : Main [email protected]@Main
Codec ID : V_MPEGH/ISO/HEVC
Duration : 22 min 33 s
Bit rate : 4 000 kb/s
Width : 3 840 pixels
Height : 2 160 pixels
Display aspect ratio : 16:9
Frame rate mode : Constant
Frame rate : 23.976 (24000/1001) FPS
Color space : YUV
Chroma subsampling : 4:2:0
Bit depth : 10 bits
Bits/(Pixel*Frame) : 0.020
Stream size : 645 MiB (94%)
Writing library : x265 3.2+9-971180b100f8:[Windows][GCC 9.2.0][64 bit] 10bit
Encoding settings : cpuid=1111039 / frame-threads=3 / numa-pools=12 / wpp / no-pmode / no-pme / no-psnr / ssim / log-level=2 / input-csp=1 / input-res=3840x2160 / interlace=0 / total-frames=32447 / level-idc=0 / high-tier=1 / uhd-bd=0 / ref=4 / no-allow-non-conformance / no-repeat-headers / annexb / no-aud / no-hrd / info / hash=0 / no-temporal-layers / open-gop / min-keyint=23 / keyint=250 / gop-lookahead=0 / bframes=12 / b-adapt=2 / b-pyramid / bframe-bias=50 / rc-lookahead=80 / lookahead-slices=4 / scenecut=40 / radl=0 / no-splice / no-intra-refresh / ctu=64 / min-cu-size=8 / rect / no-amp / max-tu-size=32 / tu-inter-depth=1 / tu-intra-depth=1 / limit-tu=0 / rdoq-level=2 / dynamic-rd=0.00 / ssim-rd / signhide / no-tskip / nr-intra=0 / nr-inter=0 / constrained-intra / strong-intra-smoothing / max-merge=5 / limit-refs=3 / limit-modes / me=3 / subme=5 / merange=57 / temporal-mvp / no-frame-dup / no-hme / weightp / no-weightb / no-analyze-src-pics / deblock=0:0 / sao / no-sao-non-deblock / rd=4 / selective-sao=4 / early-skip / rskip / no-fast-intra / no-tskip-fast / no-cu-lossless / no-b-intra / splitrd-skip / rdpenalty=0 / psy-rd=3.50 / psy-rdoq=2.50 / no-rd-refine / no-lossless / cbqpoffs=0 / crqpoffs=0 / rc=abr / bitrate=4000 / qcomp=0.60 / qpstep=4 / stats-write=0 / stats-read=2 / cplxblur=20.0 / qblur=0.5 / ipratio=1.40 / pbratio=1.30 / aq-mode=3 / aq-strength=0.40 / cutree / zone-count=0 / no-strict-cbr / qg-size=32 / no-rc-grain / qpmax=69 / qpmin=0 / no-const-vbv / sar=0 / overscan=0 / videoformat=5 / range=0 / colorprim=2 / transfer=2 / colormatrix=2 / chromaloc=0 / display-window=0 / cll=0,0 / min-luma=0 / max-luma=1023 / log2-max-poc-lsb=8 / vui-timing-info / vui-hrd-info / slices=1 / no-opt-qp-pps / no-opt-ref-list-length-pps / multi-pass-opt-rps / scenecut-bias=0.05 / no-opt-cu-delta-qp / no-aq-motion / no-hdr / no-hdr-opt / no-dhdr10-opt / no-idr-recovery-sei / analysis-load / analysis-reuse-level=10 / scale-factor=0 / refine-intra=0 / refine-inter=0 / refine-mv=1 / refine-ctu-distortion=0 / limit-sao / ctu-info=0 / no-lowpass-dct / refine-analysis-type=0 / copy-pic=1 / max-ausize-factor=1.0 / no-dynamic-refine / no-single-sei / no-hevc-aq / no-svt / no-field / qp-adaptation-range=1.00
Default : Yes
Forced : No

Audio
ID : 2
Format : E-AC-3
Format/Info : Enhanced Audio Coding 3
Format settings, Endianness : Big
Codec ID : A_EAC3
Duration : 22 min 33 s
Bit rate mode : Constant
Bit rate : 256 kb/s
Channel(s) : 6 channels
Channel positions : Front: L C R, Side: L R, LFE
Sampling rate : 48.0 kHz
Frame rate : 187.500 FPS (256 spf)
Compression mode : Lossy
Stream size : 41.3 MiB (6%)
Language : English
Default : No
Forced : No

Subtitle
ID : 3
Format : UTF-8
Codec ID : S_TEXT/UTF8
Codec ID/Info : UTF-8 Plain Text
Duration : 22 min 12 s
Bit rate : 119 b/s
Count of elements : 569
Stream size : 19.4 KiB (0%)
Title : SDH
Language : English
Default : No
Forced : No

Menu
00:01:41.022 : en:Chapter 01
00:10:27.003 : en:Chapter 02
00:16:51.008 : en:Chapter 03
00:00:00.000 : en:Credits



Source Information

Code:

Release:
Archer S11E06 The Double Date 2160p.AI.Web.DDP5.1.UTR.mkv (2.38 GBs)



Code:


Note From UTR
Whilst we are happy for our releases to be re-posted on a platform we aren't on, please do so in an 'as-is' format. We ask that you do not create a new torrent, include all descriptions you see above including the UTR logo, tags, notes and screenshots. If you'd like to become a permanent poster on a website we don't post to, feel free to get in contact with a UTR member.
If possible please donate for seedboxes.
BTC - 1QA5fum5AyXvWzdVCkQzUNvw3Ef15fHRaR
Monero - 8AuksPSzY7fen3HHT1a2342PgVy4J93MKfXG3AAcayV76miTyJ3sNfn38srwrpLirGfeR5DwhTL8GW8pdQgT7bZcJ25ynMx
Dash - Xh4mNs6uwZdpCEX2HSEVwGvPD7yKxZ1Ccd
Ethereum - 0x51c06c94e74c16735a7a6e841ad29fc90a84eb1f



Files:

  • Archer S11E06 The Double Date [2160p x265 10bit S97 Joy].mkv (686.9 MB)

Code:

  • udp://tracker.opentrackr.org:1337/announce
  • udp://9.rarbg.com:2710/announce
  • udp://9.rarbg.to:2710/announce
  • udp://tracker.torrent.eu.org:451/announce
  • udp://tracker.tiny-vps.com:6969/announce
  • udp://open.demonii.si:1337/announce
  • udp://exodus.desync.com:6969/announce