Strictly Come Dancing S18E01 [2020] Launch Show (1280x720p HD, 50fps, soft Eng subs)

  • Category TV
  • Type HD
  • Language English
  • Total size 3.3 GB
  • Uploaded By ElsonRoa
  • Downloads 195
  • Last checked Oct. 22nd '20
  • Date uploaded Oct. 18th '20
  • Seeders 4
  • Leechers 2

Infohash : 03BE22F48581B5F87BB5CA6A42B8A649F7A09097

Strictly Come Dancing S18E01 [2020] Launch Show (1280x720p HD, 50fps, soft Eng subs)

Tess Daly and Claudia Winkleman present the launch of Strictly Come Dancing 2020. They will be joined in the ballroom by judges Motsi Mabuse, Craig Revel Horwood and Shirley Ballas and 12 brand new celebrities for what promises to be an unforgettable night of dance. / / As well as revealing this year's pairings, there will be two spectacular group routines from the Strictly professionals, a very special music performance from Joel Corry and MNEK, and the return of reigning champion Kelvin Fletcher.

First broadcast: 17 October 2020
Duration: 90 minutes

Torrent dead? Request reseed at torrentgalaxy.org - or ask at elsonroa at tutanota.com

General
Format profile : Base Media
Codec ID : isom (isom/iso2/avc1/mp41)
File size : 3.28 GiB
Duration : 1h 30mn
Overall bit rate : 5 203 Kbps

Video
ID : 1
Format : AVC
Format/Info : Advanced Video Codec
Format profile : [email protected]
Format settings, CABAC : Yes
Format settings, ReFrames : 2 frames
Codec ID : avc1
Codec ID/Info : Advanced Video Coding
Duration : 1h 30mn
Bit rate : 5 063 Kbps
Width : 1 280 pixels
Height : 720 pixels
Display aspect ratio : 16:9
Frame rate mode : Variable
Frame rate : 50.000 fps
Minimum frame rate : 25.000 fps
Maximum frame rate : 90 000.000 fps
Standard : Component
Color space : YUV
Chroma subsampling : 4:2:0
Bit depth : 8 bits
Scan type : Progressive
Bits/(Pixel*Frame) : 0.110
Stream size : 3.19 GiB (97%)
Encoded date : UTC 1904-01-01 00:00:00
Tagged date : UTC 1904-01-01 00:00:00
Color range : Limited
Color primaries : BT.709
Transfer characteristics : BT.709
Matrix coefficients : BT.709

Audio
ID : 2
Format : AAC
Format/Info : Advanced Audio Codec
Format profile : LC
Codec ID : 40
Duration : 1h 30mn
Bit rate mode : Constant
Bit rate : 125 Kbps
Channel(s) : 2 channels
Channel positions : Front: L R
Sampling rate : 48.0 KHz
Frame rate : 46.875 fps (1024 spf)
Compression mode : Lossy
Stream size : 80.9 MiB (2%)
Language : English

Files:

Strictly Come Dancing S18E01 Launch Show
  • About this torrent.txt (2.0 KB)
  • Downloaded from Demonoid - www.dnoid.is.txt (0.1 KB)
  • If this torrent is dead.txt (0.1 KB)
  • Strictly Come Dancing S18E01 Launch Show.jpg (1.2 MB)
  • Strictly Come Dancing S18E01 Launch Show.mp4 (3.3 GB)
  • Strictly Come Dancing S18E01 Launch Show.srt (158.1 KB)
  • Torrent Downloaded From 1337x.to.txt (0.0 KB)
  • [TGx]Downloaded from torrentgalaxy.to.txt (0.5 KB)

Code:

  • udp://tracker.kamigami.org:2710/announce
  • udp://opentracker.i2p.rocks:6969/announce
  • udp://tracker.zerobytes.xyz:1337/announce
  • https://tracker.nitrix.me:443/announce
  • http://novaopcj.icu:10325/announce
  • udp://aaa.army:8866/announce
  • udp://tracker2.dler.org:80/announce