Soorarai Pottru (2020) 720p WEBRip x264 AAC Multi Aud [ Tel, Tam, Mal, Kan ] ESub

  • Category Movies
  • Type Dubs/Dual Audio
  • Language Telugu
  • Total size 1.5 GB
  • Uploaded By krishh1337
  • Downloads 13993
  • Last checked Nov. 15th '20
  • Date uploaded Nov. 13th '20
  • Seeders 211
  • Leechers 70

Soorarai Pottru

Drama Action

Nedumaaran Rajangam "Maara" sets out to make the common man fly and in the process takes on the world's most capital intensive industry and several enemies who stand in his way.

Infohash : 0D5982CB388FDBD5D2F8C6B0261F4B284138215B



Soorarai Pottru (2020)
Nedumaaran Rajangam "Maara" sets out to make the common man fly and in the process takes
on the world's most capital intensive industry and several enemies who stand in his way.

Director: Sudha Kongara

Stars: Suriya, Paresh Rawal, Aparna Balamurali.

Format : Matroska
Format version : Version 4
File size : 1.54 GiB
Duration : 2 h 29 min
Overall bit rate : 1 475 kb/s

Video
ID : 1
Format : AVC
Format/Info : Advanced Video Codec
Codec ID : V_MPEG4/ISO/AVC
Duration : 2 h 29 min
Bit rate : 1 032 kb/s
Width : 1 280 pixels
Height : 528 pixels

Audio #1
ID : 2
Format : AAC LC
Format/Info : Advanced Audio Codec Low Complexity
Codec ID : A_AAC-2
Duration : 2 h 29 min
Bit rate : 126 kb/s
Channel(s) : 2 channels
Channel layout : L R
Sampling rate : 44.1 kHz
Frame rate : 43.066 FPS (1024 SPF)
Compression mode : Lossy
Stream size : 134 MiB (9%)
Language : Telugu
Default : Yes
Forced : Yes

Audio #2
ID : 3
Format : AAC LC
Format/Info : Advanced Audio Codec Low Complexity
Codec ID : A_AAC-2
Duration : 2 h 29 min
Bit rate : 126 kb/s
Channel(s) : 2 channels
Channel layout : L R
Sampling rate : 44.1 kHz
Frame rate : 43.066 FPS (1024 SPF)
Compression mode : Lossy
Stream size : 134 MiB (9%)
Language : Tamil
Default : No
Forced : No

Audio #3
ID : 4
Format : AAC LC
Format/Info : Advanced Audio Codec Low Complexity
Codec ID : A_AAC-2
Duration : 2 h 29 min
Bit rate : 93.6 kb/s
Channel(s) : 2 channels
Channel layout : L R
Sampling rate : 44.1 kHz
Frame rate : 43.066 FPS (1024 SPF)
Compression mode : Lossy
Stream size : 100.0 MiB (6%)
Language : Malayalam
Default : No
Forced : No

Audio #4
ID : 5
Format : AAC LC
Format/Info : Advanced Audio Codec Low Complexity
Codec ID : A_AAC-2
Duration : 2 h 29 min
Bit rate : 93.6 kb/s
Channel(s) : 2 channels
Channel layout : L R
Sampling rate : 44.1 kHz
Frame rate : 43.066 FPS (1024 SPF)
Compression mode : Lossy
Stream size : 100.0 MiB (6%)
Language : Kannada
Default : No
Forced : No

Text #1
ID : 6
Format : UTF-8
Codec ID : S_TEXT/UTF8
Codec ID/Info : UTF-8 Plain Text
Duration : 2 h 27 min
Bit rate : 200 b/s
Count of elements : 2433
Stream size : 216 KiB (0%)
Language : Hindi
Default : Yes
Forced : No

Text #2
ID : 7
Format : UTF-8
Codec ID : S_TEXT/UTF8
Codec ID/Info : UTF-8 Plain Text
Duration : 2 h 27 min
Bit rate : 75 b/s
Count of elements : 2433
Stream size : 81.3 KiB (0%)
Language : English
Default : No
Forced : No



Files:

  • Soorarai Pottru (2020) 720p WEBRip x264 AAC Multi Aud [ Tel, Tam, Mal, Kan ] ESub.mkv (1.5 GB)

Code:

  • udp://exodus.desync.com:6969/announce
  • udp://explodie.org:6969/announce
  • udp://tracker.tiny-vps.com:6969/announce
  • udp://tracker.torrent.eu.org:451/announce
  • udp://ipv4.tracker.harry.lu:80/announce
  • http://explodie.org:6969/announce
  • http://tracker.opentrackr.org:1337/announce
  • udp://9.rarbg.to:2800/announce
  • http://tracker3.itzmx.com:6961/announce
  • http://tracker1.itzmx.com:8080/announce
  • http://t.nyaatracker.com:80/announce
  • udp://open.stealth.si:80/announce
  • UDP://TRACKER.COPPERSURFER.TK:6969/ANNOUNCE
  • UDP://TRACKER.OPENTRACKR.ORG:1337/ANNOUNCE
  • UDP://TRACKER.LEECHERS-PARADISE.ORG:6969/ANNOUNCE