3 (Three) (2012) UNCUT 720p WEB-HDRip x264 Esubs [Dual Audio] [Hindi DD 2.0 - Tamil 2.0] - 1.6 GB

  • Category Movies
  • Type Dubs/Dual Audio
  • Language Hindi
  • Total size 1.6 GB
  • Uploaded By DESIRE123
  • Downloads 5188
  • Last checked Nov. 21st '20
  • Date uploaded Nov. 18th '20
  • Seeders 89
  • Leechers 26

The Three Stooges

Comedy

While trying to save their childhood orphanage, Moe, Larry, and Curly inadvertently stumble into a murder plot and wind up starring in a reality TV show.

Infohash : 8F8568E516D81E1296008FFE82A167B516C73EAD

3 (Three) (2012) UNCUT 720p WEB-HDRip x264 Esubs [Dual Audio] [Hindi DD 2.0 - Tamil 2.0] - 1.6 GB


This Movie Encoded by DesireMoVies.UNO


POSTER



INFO


General
Format : Matroska
Format version : Version 4 / Version 2
File size : 1.61 GiB
Duration : 2 h 27 min
Overall bit rate : 1 555 kb/s
Movie name : DesireMoVies.UNO

Video
ID : 1
Format : AVC
Format/Info : Advanced Video Codec
Format profile : [email protected]
Format settings, CABAC : Yes
Format settings, RefFrames : 4 frames
Codec ID : V_MPEG4/ISO/AVC
Duration : 2 h 27 min
Bit rate : 1 233 kb/s
Width : 1 280 pixels
Height : 546 pixels
Display aspect ratio : 2.35:1
Original display aspect ratio : 2.35:1
Frame rate mode : Constant
Frame rate : 25.000 FPS
Color space : YUV
Chroma subsampling : 4:2:0
Bit depth : 8 bits
Default : Yes
Forced : No

Audio #1
ID : 2
Format : AC-3
Format/Info : Audio Coding 3
Mode : Dolby Digital
Format settings, Endianness : Big
Codec ID : A_AC3
Duration : 2 h 27 min
Bit rate mode : Constant
Bit rate : 192 kb/s
Channel(s) : 2 channels
Channel positions : Front: L R
Sampling rate : 48.0 kHz
Frame rate : 31.250 FPS (1536 SPF)
Bit depth : 16 bits
Compression mode : Lossy
Delay relative to video : -5 ms
Stream size : 203 MiB (12%)
Title : DesireMoVies.UNO
Language : Hindi
Service kind : Complete Main
Default : Yes
Forced : No

Audio #2
ID : 3
Format : AC-3
Format/Info : Audio Coding 3
Mode : Dolby Digital
Format settings, Endianness : Big
Codec ID : A_AC3
Duration : 2 h 27 min
Bit rate mode : Constant
Bit rate : 128 kb/s
Channel(s) : 2 channels
Channel positions : Front: L R
Sampling rate : 48.0 kHz
Frame rate : 31.250 FPS (1536 SPF)
Bit depth : 16 bits
Compression mode : Lossy
Delay relative to video : -5 ms
Stream size : 135 MiB (8%)
Title : DesireMoVies.UNO
Language : Tamil
Service kind : Complete Main
Default : No
Forced : No

Text
ID : 4
Format : ASS
Codec ID : S_TEXT/ASS
Codec ID/Info : Advanced Sub Station Alpha
Compression mode : Lossless
Title : DesireMoVies.UNO
Language : English
Default : No
Forced : No


SCREENSHOT


[/url[url=https://imagetot.com/image/hWYBqY]


Keep Visit DesireMoVies.Monster For More Exusive MoVies


Files:

3 (Three) (2012) UNCUT 720p WEB-HDRip x264 Esubs [Dual Audio] [Hindi DD 2.0 - Tamil 2.0]
  • 3 UNCUT 720p HD DesireMoVies.UNO.mkv (1.6 GB)

Code:

  • udp://tracker.openbittorrent.com:80/announce
  • udp://tracker.opentrackr.org:1337/announce