The.Nest.2020.1080p.WEB-DL.DD5.1.H264-FGT

  • Category Movies
  • Type HD
  • Language English
  • Total size 4 GB
  • Uploaded By prudence25
  • Downloads 871
  • Last checked Nov. 22nd '20
  • Date uploaded Nov. 20th '20
  • Seeders 1100
  • Leechers 217

The Nest

Drama

Rory is an ambitious entrepreneur who brings his American wife and kids to his native country, England, to explore new business opportunities. After abandoning the sanctuary of their safe American suburban surroundings, the family is plunged into the despair of an archaic '80s Britain and their unaffordable new life in an English manor house threatens to destroy the family.

Infohash : A3A473A7851E8E8DF48BE1D404EE5977262C1D9C


https://www.imdb.com/title/tt8338762/

Code:

Video
ID : 1
Format : AVC
Format/Info : Advanced Video Codec
Format profile : [email protected]
Format settings : CABAC / 4 Ref Frames
Format settings, CABAC : Yes
Format settings, Reference frames : 4 frames
Codec ID : V_MPEG4/ISO/AVC
Duration : 1 h 47 min
Bit rate : 4 886 kb/s
Width : 1 920 pixels
Height : 1 038 pixels
Display aspect ratio : 1.85:1
Frame rate mode : Constant
Frame rate : 23.976 (24000/1001) FPS
Color space : YUV
Chroma subsampling : 4:2:0
Bit depth : 8 bits
Scan type : Progressive
Bits/(Pixel*Frame) : 0.102
Stream size : 3.67 GiB (93%)
Title : The.Nest.2020.1080p.WEB-DL.DD5.1.H.264-FGT
Language : English
Default : Yes
Forced : No
Color range : Limited
Color primaries : BT.709
Transfer characteristics : BT.709
Matrix coefficients : BT.709

Audio
ID : 2
Format : AC-3
Format/Info : Audio Coding 3
Commercial name : Dolby Digital
Codec ID : A_AC3
Duration : 1 h 47 min
Bit rate mode : Constant
Bit rate : 384 kb/s
Channel(s) : 6 channels
Channel layout : L R C LFE Ls Rs
Sampling rate : 48.0 kHz
Frame rate : 31.250 FPS (1536 SPF)
Compression mode : Lossy
Stream size : 295 MiB (7%)
Title : The.Nest.2020.1080p.WEB-DL.DD5.1.H.264-FGT
Language : English
Service kind : Complete Main
Default : Yes
Forced : No

Text
ID : 3
Format : UTF-8
Codec ID : S_TEXT/UTF8
Codec ID/Info : UTF-8 Plain Text
Duration : 1 h 39 min
Bit rate : 45 b/s
Count of elements : 1254
Stream size : 33.1 KiB (0%)
Language : English
Default : Yes
Forced : No

Files:

The.Nest.2020.1080p.WEB-DL.DD5.1.H.264-FGT
  • RARBG.txt (0.0 KB)
  • The.Nest.2020.1080p.WEB-DL.DD5.1.H.264-FGT.mkv (4.0 GB)

Code:

  • http://tracker.trackerfix.com:80/announce
  • udp://9.rarbg.me:2770/announce
  • udp://9.rarbg.to:2990/announce