The.Mandalorian.S02E04.WEBRip.x264-ION10

  • Category TV
  • Type SD
  • Language English
  • Total size 355.2 MB
  • Uploaded By MissionVow
  • Downloads 25091
  • Last checked Nov. 24th '20
  • Date uploaded Nov. 21st '20
  • Seeders 2181
  • Leechers 319

Infohash : 01CE61360D2853616ADAD939425F7D930F2EE386

The.Mandalorian.S02E04.WEBRip.x264-ION10

Upload provided by The Galactic Republic
Join us @ https://discord.gg/a4ee7bF and start your journey to find the Trove... good luck

Description:
https://www.imdb.com/title/tt12981674/

Full Image URLs:
https://orangepix.is/image/pCSJx
https://orangepix.is/image/pCIAL
https://orangepix.is/image/pCQUN
https://orangepix.is/image/pCdWv
https://orangepix.is/image/pC6Lc
https://orangepix.is/image/pCzFG
https://orangepix.is/image/pCaVr

Medium Size Thumbnails:








MEDIA INFO:
Format : MPEG-4
Format profile : Base Media
Codec ID : isom (isom/iso2/avc1/mp41)
File size : 355 MiB
Duration : 37 min 5 s
Overall bit rate : 1 338 kb/s
Movie name : The.Mandalorian.S02E04.WEBRip.x264-ION10
Encoded date : UTC 2020-11-20 07:37:58
Tagged date : UTC 2020-11-20 07:37:58
Writing application : Lavf58.0.101
Comment : The.Mandalorian.S02E04.WEBRip.x264-ION10

Video
ID : 1
Format : AVC
Format/Info : Advanced Video Codec
Format profile : [email protected]
Format settings : CABAC / 5 Ref Frames
Format settings, CABAC : Yes
Format settings, Reference frames : 5 frames
Codec ID : avc1
Codec ID/Info : Advanced Video Coding
Duration : 37 min 5 s
Bit rate : 1 100 kb/s
Width : 720 pixels
Height : 302 pixels
Display aspect ratio : 2.40:1
Original display aspect ratio : 2.40:1
Frame rate mode : Constant
Frame rate : 23.976 (24000/1001) FPS
Color space : YUV
Chroma subsampling : 4:2:0
Bit depth : 8 bits
Scan type : Progressive
Bits/(Pixel*Frame) : 0.211
Stream size : 286 MiB (80%)
Title : The.Mandalorian.S02E04.WEBRip.x264-ION10
Writing library : x264 core 148 r2795M aaa9aa8
Encoding settings : cabac=1 / ref=5 / deblock=1:-1:-1 / analyse=0x3:0x113 / me=umh / subme=9 / psy=1 / psy_rd=1.00:0.15 / mixed_ref=1 / me_range=16 / chroma_me=1 / trellis=2 / 8x8dct=1 / cqm=0 / deadzone=21,11 / fast_pskip=1 / chroma_qp_offset=-3 / threads=24 / lookahead_threads=2 / sliced_threads=0 / nr=0 / decimate=1 / interlaced=0 / bluray_compat=0 / constrained_intra=0 / bframes=3 / b_pyramid=2 / b_adapt=2 / b_bias=0 / direct=3 / weightb=1 / open_gop=0 / weightp=2 / keyint=250 / keyint_min=23 / scenecut=40 / intra_refresh=0 / rc_lookahead=50 / rc=abr / mbtree=1 / bitrate=1100 / ratetol=1.0 / qcomp=0.60 / qpmin=0 / qpmax=69 / qpstep=4 / ip_ratio=1.40 / aq=1:1.00
Encoded date : UTC 2020-11-20 07:37:58
Tagged date : UTC 2020-11-20 07:37:58
Codec configuration box : avcC

Audio
ID : 2
Format : AAC LC
Format/Info : Advanced Audio Codec Low Complexity
Codec ID : mp4a-40-2
Duration : 37 min 5 s
Bit rate mode : Constant
Bit rate : 256 kb/s
Channel(s) : 2 channels
Channel layout : L R
Sampling rate : 48.0 kHz
Frame rate : 46.875 FPS (1024 SPF)
Compression mode : Lossy
Stream size : 67.9 MiB (19%)
Title : The.Mandalorian.S02E04.WEBRip.x264-ION10
Language : English
Default : Yes
Alternate group : 1
Encoded date : UTC 2020-11-20 07:37:58
Tagged date : UTC 2020-11-20 07:37:58

Files:

The.Mandalorian.S02E04.WEBRip.x264-ION10
  • RARBG.txt (0.0 KB)
  • Subs
    • 10_Italian.srt (22.8 KB)
    • 11_Dutch.srt (20.6 KB)
    • 12_nor.srt (21.3 KB)
    • 13_Polish.srt (21.6 KB)
    • 14_Portuguese.srt (22.3 KB)
    • 15_Spanish.srt (22.2 KB)
    • 16_Swedish.srt (20.2 KB)
    • 2_English.srt (24.7 KB)
    • 3_English.srt (29.1 KB)
    • 4_Portuguese.srt (22.9 KB)
    • 5_Danish.srt (18.0 KB)
    • 6_German.srt (21.9 KB)
    • 7_Spanish.srt (21.7 KB)
    • 8_Finnish.srt (22.6 KB)
    • 9_French.srt (21.4 KB)
  • The.Mandalorian.S02E04.WEBRip.x264-ION10.mp4 (354.9 MB)

Code:

  • http://tracker.trackerfix.com:80/announce
  • udp://9.rarbg.me:2730/announce
  • udp://9.rarbg.to:2860/announce