The.Blacklist.S08E02.Katarina.Rostova.Conclusion.1080p.AMZN.WEBRip.DDP5.1.x264-NTb

  • Category TV
  • Type HD
  • Language English
  • Total size 3 GB
  • Uploaded By prudence25
  • Downloads 388
  • Last checked Nov. 25th '20
  • Date uploaded Nov. 22nd '20
  • Seeders 228
  • Leechers 25
70%
November 21,2020, 02:00AM

The Blacklist

As Liz pushes a source for answers, Red and the task force grapple with the implications of her actions. Tensions boil over and a drastic action is taken, which will change Red and Liz's relationship forever.

Infohash : 39EA9ED482074545FC42DD24623CF786D024688E



Code:

Video
ID : 1
Format : AVC
Format/Info : Advanced Video Codec
Format profile : [email protected]
Format settings : CABAC / 4 Ref Frames
Format settings, CABAC : Yes
Format settings, Reference frames : 4 frames
Codec ID : V_MPEG4/ISO/AVC
Duration : 42 min 55 s
Bit rate mode : Constant
Bit rate : 9 237 kb/s
Nominal bit rate : 10 000 kb/s
Width : 1 920 pixels
Height : 1 080 pixels
Display aspect ratio : 16:9
Frame rate mode : Constant
Frame rate : 23.976 (24000/1001) FPS
Color space : YUV
Chroma subsampling : 4:2:0
Bit depth : 8 bits
Scan type : Progressive
Bits/(Pixel*Frame) : 0.186
Stream size : 2.77 GiB (93%)
Default : Yes
Forced : No
Color range : Limited
Color primaries : BT.709
Transfer characteristics : BT.709
Matrix coefficients : BT.709

Audio
ID : 2
Format : E-AC-3
Format/Info : Enhanced AC-3
Commercial name : Dolby Digital Plus
Codec ID : A_EAC3
Duration : 42 min 55 s
Bit rate mode : Constant
Bit rate : 640 kb/s
Channel(s) : 6 channels
Channel layout : L R C LFE Ls Rs
Sampling rate : 48.0 kHz
Frame rate : 31.250 FPS (1536 SPF)
Compression mode : Lossy
Stream size : 197 MiB (6%)
Language : English
Service kind : Complete Main
Default : Yes
Forced : No

Text
ID : 3
Format : UTF-8
Codec ID : S_TEXT/UTF8
Codec ID/Info : UTF-8 Plain Text
Duration : 42 min 22 s
Bit rate : 76 b/s
Count of elements : 808
Stream size : 23.9 KiB (0%)
Title : SDH
Language : English
Default : No
Forced : No


Files:

The.Blacklist.S08E02.Katarina.Rostova.Conclusion.1080p.AMZN.WEBRip.DDP5.1.x264-NTb[rarbg]
  • RARBG.txt (0.0 KB)
  • RARBG_DO_NOT_MIRROR.exe (0.1 KB)
  • The.Blacklist.S08E02.Katarina.Rostova.Conclusion.1080p.AMZN.WEB-DL.DDP5.1.H.264-NTb.mkv (3.0 GB)

Code:

  • http://tracker.trackerfix.com:80/announce
  • udp://9.rarbg.me:2860/announce
  • udp://9.rarbg.to:2910/announce