National Treasure (2004) 1080p BDRip x264 English AC3 5.1 - MeGUiL

  • Category Movies
  • Type HD
  • Language English
  • Total size 4.6 GB
  • Uploaded By meguil
  • Downloads 307
  • Last checked Nov. 22nd '20
  • Date uploaded Nov. 22nd '20
  • Seeders 69
  • Leechers 25

National Treasure

Action Adventure Mystery Thriller

Modern treasure hunters, led by archaeologist Ben Gates, search for a chest of riches rumored to have been stashed away by George Washington, Thomas Jefferson and Benjamin Franklin during the Revolutionary War. The chest's whereabouts may lie in secret clues embedded in the Constitution and the Declaration of Independence, and Gates is in a race to find the gold before his enemies do.

Infohash : FAB308FE5A4EB53A4909AA737534601E9801E032



Release Title
National Treasure (2004) 1080p BDRip x264 English AC3 5.1 - MeGUiL

IMDB Link
https://www.imdb.com/title/tt0368891/

IMDb Rating
6.9/10 (301,507 user)

Screens:
Click to enlarge











Code:

Media Info
General
Format : Matroska
Format version : Version 4
File size : 4.55 GiB
Duration : 2 h 11 min
Overall bit rate : 4 966 kb/s
Movie name : National Treasure (2004) 1080p BDRip x264 English AC3 5.1 - MeGUiL
Encoded date : UTC 2020-11-21 18:37:07
Writing application : mkvmerge v7.7.0 ('Six Voices') 64bit built on Feb 28 2015 23:39:33
Writing library : libebml v1.3.1 + libmatroska v1.4.2

Video
ID : 1
Format : AVC
Format/Info : Advanced Video Codec
Format profile : [email protected]
Format settings : CABAC / 5 Ref Frames
Format settings, CABAC : Yes
Format settings, Reference frames : 5 frames
Codec ID : V_MPEG4/ISO/AVC
Duration : 2 h 11 min
Bit rate : 4 326 kb/s
Width : 1 920 pixels
Height : 798 pixels
Display aspect ratio : 2.40:1
Frame rate mode : Constant
Frame rate : 23.976 (24000/1001) FPS
Color space : YUV
Chroma subsampling : 4:2:0
Bit depth : 8 bits
Scan type : Progressive
Bits/(Pixel*Frame) : 0.118
Stream size : 3.96 GiB (87%)
Title : National Treasure (2004) 1080p BDRip x264 English AC3 5.1 - MeGUiL
Writing library : x264 core 146 r2538 121396c
Encoding settings : cabac=1 / ref=5 / deblock=1:-1:-1 / analyse=0x3:0x113 / me=umh / subme=11 / psy=1 / psy_rd=1.00:0.00 / mixed_ref=1 / me_range=32 / chroma_me=1 / trellis=2 / 8x8dct=1 / cqm=0 / deadzone=21,11 / fast_pskip=0 / chroma_qp_offset=-2 / threads=3 / lookahead_threads=1 / sliced_threads=0 / nr=0 / decimate=1 / interlaced=0 / bluray_compat=0 / constrained_intra=0 / bframes=8 / b_pyramid=2 / b_adapt=2 / b_bias=0 / direct=3 / weightb=1 / open_gop=0 / weightp=2 / keyint=250 / keyint_min=23 / scenecut=40 / intra_refresh=0 / rc_lookahead=60 / rc=2pass / mbtree=0 / bitrate=4326 / ratetol=1.0 / qcomp=0.60 / qpmin=0 / qpmax=69 / qpstep=4 / cplxblur=20.0 / qblur=0.5 / vbv_maxrate=14000 / vbv_bufsize=14000 / nal_hrd=none / filler=0 / ip_ratio=1.40 / pb_ratio=1.30 / aq=2:1.00
Default : Yes
Forced : No
Color range : Limited
Color primaries : Generic film
Matrix coefficients : YCgCo

Audio
ID : 2
Format : AC-3
Format/Info : Audio Coding 3
Commercial name : Dolby Digital
Codec ID : A_AC3
Duration : 2 h 11 min
Bit rate mode : Constant
Bit rate : 640 kb/s
Channel(s) : 6 channels
Channel layout : L R C LFE Ls Rs
Sampling rate : 48.0 kHz
Frame rate : 31.250 FPS (1536 SPF)
Compression mode : Lossy
Stream size : 600 MiB (13%)
Title : English AC3 640 kbps 5.1 - MeGUiL
Language : English
Service kind : Complete Main
Default : Yes
Forced : No

Menu
00:00:00.000 : :Chapter 1
00:06:36.229 : :Chapter 2
00:22:20.339 : :Chapter 3
00:28:49.269 : :Chapter 4
00:31:15.290 : :Chapter 5
00:35:44.517 : :Chapter 6
00:45:52.667 : :Chapter 7
00:54:27.973 : :Chapter 8
01:01:07.706 : :Chapter 9
01:07:02.685 : :Chapter 10
01:16:54.610 : :Chapter 11
01:24:06.458 : :Chapter 12
01:28:21.671 : :Chapter 13
01:34:20.822 : :Chapter 14
01:38:31.989 : :Chapter 15
01:49:42.576 : :Chapter 16
01:53:26.383 : :Chapter 17
01:57:22.452 : :Chapter 18
02:01:43.379 : :Chapter 19

Greets
1337x And Many More.  ;)


Files:

National Treasure (2004) 1080p BDRip x264 English AC3 5.1 - MeGUiL
  • National Treasure (2004) 1080p BDRip x264 English AC3 5.1 - MeGUiL.mkv (4.5 GB)
  • Sample.mkv (25.5 MB)
  • Torrent downloaded from 1337x.to.txt (0.1 KB)

Code:

  • udp://tracker.opentrackr.org:1337/announce
  • http://tracker.foreverpirates.co:80/announce
  • udp://46.148.18.250:2710
  • udp://opentor.org:2710
  • udp://exodus.desync.com:6969/announce
  • udp://open.stealth.si:80/announce
  • udp://tracker.cyberia.is:6969/announce
  • http://tracker.dler.org:6969/announce
  • udp://tracker.leechers-paradise.org:6969/announce
  • udp://tracker.moeking.me:6969/announce
  • udp://tracker.tiny-vps.com:6969/announce
  • udp://tracker.torrent.eu.org:451/announce
  • udp://inferno.demonoid.is:3391/announce