Red (2021) 720p HDRip x264 AAC Dual Aud [ Hin (HQ Dub) , Tel ] ESub

  • Category Movies
  • Type Dubs/Dual Audio
  • Language Hindi
  • Total size 1.4 GB
  • Uploaded By krishh1337
  • Downloads 17989
  • Last checked May. 10th '21
  • Date uploaded May. 06th '21
  • Seeders 309
  • Leechers 124

Infohash : DDFCB91F35D91B0B0B30AE248AD9495F7308F738



Red (2021):
One pictorial evidence, two lookalike suspects and just 48 hours are all the cops have to solve a murder case.

Director: Thirumala Kishore

Cast: Ram Pothineni, Nivetha Pethuraj, Malvika Sharma.

Format : Matroska
Format version : Version 4
File size : 1.42 GiB
Duration : 2 h 23 min
Overall bit rate : 1 415 kb/s

Video
ID : 1
Format : AVC
Format/Info : Advanced Video Codec
Format profile : [email protected]
Format settings : CABAC / 4 Ref Frames
Format settings, CABAC : Yes
Format settings, Reference frames : 4 frames
Codec ID : V_MPEG4/ISO/AVC
Duration : 2 h 23 min
Bit rate : 1 166 kb/s
Width : 1 280 pixels
Height : 536 pixels

Audio #1
ID : 2
Format : AAC LC
Format/Info : Advanced Audio Codec Low Complexity
Codec ID : A_AAC-2
Duration : 2 h 23 min
Bit rate : 126 kb/s
Channel(s) : 2 channels
Channel layout : L R
Sampling rate : 44.1 kHz
Frame rate : 43.066 FPS (1024 SPF)
Compression mode : Lossy
Stream size : 129 MiB (9%)
Language : Hindi (HQ Dub)
Default : Yes
Forced : Yes

Audio #2
ID : 3
Format : AAC LC
Format/Info : Advanced Audio Codec Low Complexity
Codec ID : A_AAC-2
Duration : 2 h 23 min
Bit rate : 126 kb/s
Channel(s) : 2 channels
Channel layout : L R
Sampling rate : 44.1 kHz
Frame rate : 43.066 FPS (1024 SPF)
Compression mode : Lossy
Stream size : 129 MiB (9%)
Language : Telugu
Default : No
Forced : No

Text
ID : 4
Format : UTF-8
Codec ID : S_TEXT/UTF8
Codec ID/Info : UTF-8 Plain Text
Duration : 2 h 19 min
Bit rate : 68 b/s
Count of elements : 1947
Stream size : 70.7 KiB (0%)
Language : English

Files:

Red (2021) 720p HDRip x264 AAC Dual Aud [ Hin (HQ Dub) , Tel ] ESub
  • RED (2021) 720p HDRip x264 AAC Dual Aud ( Hin (HQ Dub), Tel ) ESub.mkv (1.4 GB)
  • Sample.mkv (8.8 MB)

Code:

  • udp://9.rarbg.me:2780/announce
  • udp://tracker.tiny-vps.com:6969/announce
  • udp://tracker.torrent.eu.org:451/announce
  • udp://exodus.desync.com:6969/announce
  • http://explodie.org:6969/announce
  • http://tracker.opentrackr.org:1337/announce
  • udp://9.rarbg.to:2800/announce
  • http://tracker.skyts.net:6969/announce
  • http://t.nyaatracker.com:80/announce
  • udp://open.stealth.si:80/announce
  • http://91.217.91.21:3218/announce
  • http://tracker.dler.org:6969/announce
  • udp://ipv4.tracker.harry.lu:80/announce
  • udp://9.rarbg.me:2720/announce
  • udp://9.rarbg.to:2720/announce
  • udp://bt2.archive.org:6969/announce
  • udp://bt1.archive.org:6969/announce
  • http://tracker.foreverpirates.co:80/announce