Hum Bhi Akele Tum Bhi Akele (2021) Hindi 720p WEBDL x264 AAC- ESub

  • Category Movies
  • Type Bollywood
  • Language Hindi
  • Total size 1.3 GB
  • Uploaded By krishh1337
  • Downloads 8912
  • Last checked May. 13th '21
  • Date uploaded May. 09th '21
  • Seeders 186
  • Leechers 45

Infohash : 8F0760F983AAEF922CF1F2BB474F1CE567457027



Hum Bhi Akele Tum Bhi Akele ( 2021):
एक समलैंगिक लड़का और लड़की नई दिल्ली से हिमाचल तक एक सड़क यात्रा करते हैं जो उन्हें दोस्ती में प्यार की खोज करने में मदद करती है.

Director: Harish Vyas

Cast: Anshuman Jha, Zareen Khan, Ravi Khanvilkar.

Format : Matroska
Format version : Version 4
File size : 1.30 GiB
Duration : 1 h 57 min
Overall bit rate : 1 586 kb/s

Video
ID : 1
Format : AVC
Format/Info : Advanced Video Codec
Format profile : [email protected]
Format settings : CABAC / 5 Ref Frames
Format settings, CABAC : Yes
Format settings, Reference frames : 5 frames
Format settings, GOP : M=4, N=48
Codec ID : V_MPEG4/ISO/AVC
Duration : 1 h 57 min
Bit rate : 1 300 kb/s
Width : 1 280 pixels
Height : 720 pixels

Audio #1
ID : 2
Format : E-AC-3
Format/Info : Enhanced AC-3
Commercial name : Dolby Digital Plus
Codec ID : A_EAC3
Duration : 1 h 57 min
Bit rate mode : Constant
Bit rate : 192 kb/s
Channel(s) : 6 channels
Channel layout : L R C LFE Ls Rs
Sampling rate : 48.0 kHz
Frame rate : 31.250 FPS (1536 SPF)
Compression mode : Lossy
Stream size : 161 MiB (12%)
Language : Hindi
Service kind : Complete Main
Default : No
Forced : No

Audio #2
ID : 3
Format : AAC LC
Format/Info : Advanced Audio Codec Low Complexity
Codec ID : A_AAC-2
Duration : 1 h 57 min
Bit rate : 96.0 kb/s
Channel(s) : 2 channels
Channel layout : L R
Sampling rate : 44.1 kHz
Frame rate : 43.066 FPS (1024 SPF)
Compression mode : Lossy
Stream size : 80.4 MiB (6%)
Language : Hindi
Default : No
Forced : No

Text
ID : 4
Format : UTF-8
Codec ID : S_TEXT/UTF8
Codec ID/Info : UTF-8 Plain Text
Duration : 1 h 54 min
Bit rate : 41 b/s
Count of elements : 1237
Stream size : 35.1 KiB (0%)
Language : English

Files:

  • Hum Bhi Akele Tum Bhi Akele (2021) Hindi 720p WEBDL x264 AAC- ESub.mkv (1.3 GB)

Code:

  • udp://9.rarbg.me:2780/announce
  • udp://tracker.tiny-vps.com:6969/announce
  • udp://tracker.torrent.eu.org:451/announce
  • udp://exodus.desync.com:6969/announce
  • http://explodie.org:6969/announce
  • http://tracker.opentrackr.org:1337/announce
  • udp://9.rarbg.to:2800/announce
  • http://tracker.skyts.net:6969/announce
  • http://t.nyaatracker.com:80/announce
  • udp://open.stealth.si:80/announce
  • http://91.217.91.21:3218/announce
  • http://tracker.dler.org:6969/announce
  • udp://ipv4.tracker.harry.lu:80/announce
  • udp://9.rarbg.me:2720/announce
  • udp://9.rarbg.to:2720/announce
  • udp://bt2.archive.org:6969/announce
  • udp://bt1.archive.org:6969/announce
  • http://tracker.foreverpirates.co:80/announce