Star.Wars.The.Bad.Batch.S01E03.1080p.DSNP.WEBRip.DDP5.1.x264-END

  • Category TV
  • Type HD
  • Language English
  • Total size 1.2 GB
  • Uploaded By MissionVow
  • Downloads 7155
  • Last checked May. 19th '21
  • Date uploaded May. 15th '21
  • Seeders 1326
  • Leechers 151

Infohash : AFE5BAAF27D13A24DCAA6321565D4D2D14D3B295

Star.Wars.The.Bad.Batch.S01E03.1080p.DSNP.WEBRip.DDP5.1.x264-END

Upload provided by The Galactic Republic
Join us @ https://discord.gg/a4ee7bF and start your journey to find the Trove... good luck

Description:
https://www.imdb.com/title/tt12708542/












MEDIA INFO:
General
Format : Matroska
Format version : Version 4
File size : 1.18 GiB
Duration : 24 min 46 s
Overall bit rate mode : Variable
Overall bit rate : 6 807 kb/s
Encoded date : UTC 2021-05-14 07:06:35
Writing application : mkvmerge v45.0.0 ('Heaven in Pennies') 64-bit
Writing library : libebml v1.3.10 + libmatroska v1.5.2

Video
ID : 1
Format : AVC
Format/Info : Advanced Video Codec
Format profile : [email protected]
Format settings : CABAC / 4 Ref Frames
Format settings, CABAC : Yes
Format settings, Reference frames : 4 frames
Codec ID : V_MPEG4/ISO/AVC
Duration : 24 min 46 s
Bit rate mode : Variable
Bit rate : 6 547 kb/s
Maximum bit rate : 12.7 Mb/s
Width : 1 920 pixels
Height : 1 080 pixels
Display aspect ratio : 16:9
Frame rate mode : Constant
Frame rate : 23.976 (24000/1001) FPS
Color space : YUV
Chroma subsampling : 4:2:0
Bit depth : 8 bits
Scan type : Progressive
Bits/(Pixel*Frame) : 0.132
Stream size : 1.13 GiB (96%)
Default : Yes
Forced : No
Color range : Limited
Color primaries : BT.709
Transfer characteristics : BT.709
Matrix coefficients : BT.709

Audio
ID : 2
Format : E-AC-3
Format/Info : Enhanced AC-3
Commercial name : Dolby Digital Plus
Codec ID : A_EAC3
Duration : 24 min 46 s
Bit rate mode : Constant
Bit rate : 256 kb/s
Channel(s) : 6 channels
Channel layout : L R C LFE Ls Rs
Sampling rate : 48.0 kHz
Frame rate : 31.250 FPS (1536 SPF)
Compression mode : Lossy
Stream size : 45.4 MiB (4%)
Title : English
Language : English
Service kind : Complete Main
Default : No
Forced : No

Text #1
ID : 3
Format : UTF-8
Codec ID : S_TEXT/UTF8
Codec ID/Info : UTF-8 Plain Text
Duration : 24 min 9 s
Bit rate : 38 b/s
Count of elements : 192
Stream size : 6.76 KiB (0%)
Title : Dutch
Language : Dutch
Default : No
Forced : No

Text #2
ID : 4
Format : UTF-8
Codec ID : S_TEXT/UTF8
Codec ID/Info : UTF-8 Plain Text
Duration : 24 min 9 s
Bit rate : 49 b/s
Count of elements : 241
Stream size : 8.76 KiB (0%)
Title : Italian
Language : Italian
Default : No
Forced : No

Text #3
ID : 5
Format : UTF-8
Codec ID : S_TEXT/UTF8
Codec ID/Info : UTF-8 Plain Text
Duration : 24 min 12 s
Bit rate : 45 b/s
Count of elements : 240
Stream size : 8.03 KiB (0%)
Title : Danish
Language : Danish
Default : No
Forced : No

Text #4
ID : 6
Format : UTF-8
Codec ID : S_TEXT/UTF8
Codec ID/Info : UTF-8 Plain Text
Duration : 24 min 9 s
Bit rate : 46 b/s
Count of elements : 238
Stream size : 8.29 KiB (0%)
Title : Brazilian Portuguese
Language : Portuguese
Default : No
Forced : No

Text #5
ID : 7
Format : UTF-8
Codec ID : S_TEXT/UTF8
Codec ID/Info : UTF-8 Plain Text
Duration : 24 min 23 s
Bit rate : 43 b/s
Count of elements : 244
Stream size : 7.78 KiB (0%)
Title : Polish
Language : Polish
Default : No
Forced : No

Text #6
ID : 8
Format : UTF-8
Codec ID : S_TEXT/UTF8
Codec ID/Info : UTF-8 Plain Text
Duration : 24 min 12 s
Bit rate : 45 b/s
Count of elements : 243
Stream size : 8.00 KiB (0%)
Title : Norwegian
Language : Norwegian
Default : No
Forced : No

Text #7
ID : 9
Format : UTF-8
Codec ID : S_TEXT/UTF8
Codec ID/Info : UTF-8 Plain Text
Duration : 24 min 12 s
Bit rate : 46 b/s
Count of elements : 232
Stream size : 8.31 KiB (0%)
Title : European Spanish
Language : Spanish
Default : No
Forced : No

Text #8
ID : 10
Format : UTF-8
Codec ID : S_TEXT/UTF8
Codec ID/Info : UTF-8 Plain Text
Duration : 24 min 9 s
Bit rate : 45 b/s
Count of elements : 242
Stream size : 8.07 KiB (0%)
Title : French
Language : French
Default : No
Forced : No

Text #9
ID : 11
Format : UTF-8
Codec ID : S_TEXT/UTF8
Codec ID/Info : UTF-8 Plain Text
Duration : 23 min 8 s
Bit rate : 47 b/s
Count of elements : 241
Stream size : 8.13 KiB (0%)
Title : English
Language : English
Default : No
Forced : No

Text #10
ID : 12
Format : UTF-8
Codec ID : S_TEXT/UTF8
Codec ID/Info : UTF-8 Plain Text
Duration : 24 min 9 s
Bit rate : 42 b/s
Count of elements : 240
Stream size : 7.46 KiB (0%)
Title : Finnish
Language : Finnish
Default : No
Forced : No

Text #11
ID : 13
Format : UTF-8
Codec ID : S_TEXT/UTF8
Codec ID/Info : UTF-8 Plain Text
Duration : 24 min 9 s
Bit rate : 45 b/s
Count of elements : 235
Stream size : 8.09 KiB (0%)
Title : German
Language : German
Default : No
Forced : No

Text #12
ID : 14
Format : UTF-8
Codec ID : S_TEXT/UTF8
Codec ID/Info : UTF-8 Plain Text
Duration : 24 min 9 s
Bit rate : 44 b/s
Count of elements : 235
Stream size : 7.87 KiB (0%)
Title : Spanish
Language : Spanish
Default : No
Forced : No

Text #13
ID : 15
Format : UTF-8
Codec ID : S_TEXT/UTF8
Codec ID/Info : UTF-8 Plain Text
Duration : 24 min 12 s
Bit rate : 49 b/s
Count of elements : 243
Stream size : 8.70 KiB (0%)
Title : Portuguese
Language : Portuguese
Default : No
Forced : No

Text #14
ID : 16
Format : UTF-8
Codec ID : S_TEXT/UTF8
Codec ID/Info : UTF-8 Plain Text
Duration : 24 min 12 s
Bit rate : 46 b/s
Count of elements : 243
Stream size : 8.25 KiB (0%)
Title : Swedish
Language : Swedish
Default : No
Forced : No

Text #15
ID : 17
Format : UTF-8
Codec ID : S_TEXT/UTF8
Codec ID/Info : UTF-8 Plain Text
Duration : 23 min 8 s
Bit rate : 51 b/s
Count of elements : 279
Stream size : 8.81 KiB (0%)
Title : English [SDH]
Language : English
Default : No
Forced : No

Files:

Star.Wars.The.Bad.Batch.S01E03.1080p.DSNP.WEBRip.DDP5.1.x264-END[rartv]
  • RARBG.txt (0.0 KB)
  • Star.Wars.The.Bad.Batch.S01E03.1080p.DSNP.WEB-DL.DDP5.1.H.264-END.mkv (1.2 GB)

Code:

  • http://tracker.trackerfix.com:80/announce
  • udp://9.rarbg.me:2870/announce
  • udp://9.rarbg.to:2740/announce
  • udp://tracker.tallpenguin.org:15780/announce
  • udp://tracker.thinelephant.org:12790/announce