Cosmic Sin (2021) 720p BRRip x264 AAC Dual Aud [ Hin+Eng ] ESub

  • Category Movies
  • Type Dubs/Dual Audio
  • Language Hindi
  • Total size 990.8 MB
  • Uploaded By krishh1337
  • Downloads 4984
  • Last checked May. 31st '21
  • Date uploaded May. 26th '21
  • Seeders 65
  • Leechers 11

Cosmic Sin

Science Fiction Action

Seven rogue soldiers launch a preemptive strike against a newly discovered alien civilization in the hopes of ending an interstellar war before it starts.

Infohash : BFBA3001BFB9C2C1393BC22FFEF21D3228105C58



Cosmic Sin (2021):
Seven rogue soldiers launch a preemptive strike against a newly discovered
alien civilization in the hopes of ending an interstellar war before it starts.

Director: Edward Drake

Cast: Frank Grillo, Bruce Willis, Brandon Thomas Lee.

Format : Matroska
Format version : Version 4
File size : 991 MiB
Duration : 1 h 28 min
Overall bit rate : 1 570 kb/s

Video
ID : 1
Format : AVC
Format/Info : Advanced Video Codec
Format profile : [email protected]
Format settings : CABAC / 4 Ref Frames
Format settings, CABAC : Yes
Format settings, Reference frames : 4 frames
Codec ID : V_MPEG4/ISO/AVC
Duration : 1 h 28 min
Bit rate : 1 150 kb/s
Width : 1 280 pixels
Height : 534 pixels

Audio #1
ID : 2
Format : E-AC-3
Format/Info : Enhanced AC-3
Commercial name : Dolby Digital Plus
Codec ID : A_EAC3
Duration : 1 h 28 min
Bit rate mode : Constant
Bit rate : 192 kb/s
Channel(s) : 6 channels
Channel layout : L R C LFE Ls Rs
Sampling rate : 44.1 kHz
Frame rate : 28.711 FPS (1536 SPF)
Compression mode : Lossy
Delay relative to video : -21 ms
Stream size : 121 MiB (12%)
Language : Hindi
Service kind : Complete Main
Default : Yes
Forced : No

Audio #2
ID : 3
Format : AAC LC
Format/Info : Advanced Audio Codec Low Complexity
Codec ID : A_AAC-2
Duration : 1 h 28 min
Bit rate : 96.0 kb/s
Channel(s) : 2 channels
Channel layout : L R
Sampling rate : 44.1 kHz
Frame rate : 43.066 FPS (1024 SPF)
Compression mode : Lossy
Delay relative to video : -21 ms
Stream size : 61.2 MiB (6%)
Language : Hindi
Default : No
Forced : No

Audio #3
ID : 4
Format : AAC LC
Format/Info : Advanced Audio Codec Low Complexity
Codec ID : A_AAC-2
Duration : 1 h 28 min
Bit rate : 128 kb/s
Channel(s) : 2 channels
Channel layout : L R
Sampling rate : 48.0 kHz
Frame rate : 46.875 FPS (1024 SPF)
Compression mode : Lossy
Delay relative to video : -21 ms
Stream size : 80.6 MiB (8%)
Language : English
Default : No
Forced : No

Text
ID : 5
Format : UTF-8
Codec ID : S_TEXT/UTF8
Codec ID/Info : UTF-8 Plain Text
Duration : 1 h 22 min
Bit rate : 44 b/s
Count of elements : 961
Stream size : 27.0 KiB (0%)
Language : English

Files:

  • Cosmic Sin (2021) 720p BRRip x264 AAC Dual Aud [ Hin+Eng ] ESub.mkv (990.8 MB)

Code:

  • udp://9.rarbg.me:2780/announce
  • udp://tracker.tiny-vps.com:6969/announce
  • udp://tracker.torrent.eu.org:451/announce
  • udp://exodus.desync.com:6969/announce
  • http://explodie.org:6969/announce
  • http://tracker.opentrackr.org:1337/announce
  • udp://9.rarbg.to:2800/announce
  • http://tracker.skyts.net:6969/announce
  • http://t.nyaatracker.com:80/announce
  • udp://open.stealth.si:80/announce
  • http://91.217.91.21:3218/announce
  • http://tracker.dler.org:6969/announce
  • udp://ipv4.tracker.harry.lu:80/announce
  • udp://9.rarbg.me:2720/announce
  • udp://9.rarbg.to:2720/announce
  • udp://bt2.archive.org:6969/announce
  • udp://bt1.archive.org:6969/announce
  • http://tracker.foreverpirates.co:80/announce