The.Human.Voice.2020.1080p.HMAX.WEB-DL.DD5.1.x264-PLiSSKEN

  • Category Movies
  • Type HD
  • Language English
  • Total size 1.8 GB
  • Uploaded By noriegaRJ
  • Downloads 435
  • Last checked Jun. 01st '21
  • Date uploaded May. 30th '21
  • Seeders 63
  • Leechers 15

The Human Voice

Drama

A woman watches time passing next to the suitcases of her ex-lover (who is supposed to come pick them up. but never arrives) and a restless dog who doesn't understand that his master has abandoned him.

Infohash : B1B24DA318934A9921AC472DBB2BCEE90A963E95

Release: The.Human.Voice.2020.1080p.HMAX.WEB-DL.DD5.1.x264-PLiSSKEN



IMDB: https://www.imdb.com/title/tt11760792

Subtitle: English (soft)

Plot: A woman watches time passing next to the suitcases of her ex-lover (who is supposed to come pick them up, but never arrives) and a restless dog who doesn't understand that his master has abandoned him. Two living beings facing abandonment. A short film by Pedro Almodovar, with Tilda Swinton.


General
Complete name : The.Human.Voice.2020.1080p.HMAX.WEB-DL.DD5.1.x264-PLiSSKEN.mkv
Format : Matroska
Format version : Version 4
File size : 1.83 GiB
Duration : 30 min 18 s
Overall bit rate mode : Variable
Overall bit rate : 8 640 kb/s
Encoded date : UTC 2021-05-03 23:29:26
Writing application : mkvmerge v56.1.0 ('My Friend') 64-bit
Writing library : libebml v1.4.2 + libmatroska v1.6.4

Video
ID : 1
Format : AVC
Format/Info : Advanced Video Codec
Format profile : [email protected]
Format settings : CABAC / 4 Ref Frames
Format settings, CABAC : Yes
Format settings, Reference : 4 frames
Codec ID : V_MPEG4/ISO/AVC
Duration : 30 min 18 s
Bit rate mode : Variable
Bit rate : 8 250 kb/s
Maximum bit rate : 12.4 Mb/s
Width : 1 920 pixels
Height : 1 080 pixels
Display aspect ratio : 16:9
Frame rate mode : Constant
Frame rate : 23.976 (24000/1001) FPS
Color space : YUV
Chroma subsampling : 4:2:0
Bit depth : 8 bits
Scan type : Progressive
Bits/(Pixel*Frame) : 0.166
Stream size : 1.75 GiB (96%)
Writing library : x264 core 157 r2965 861cec4
Encoding settings : cabac=1 / ref=4 / deblock=1:0:0 / analyse=0x3:0x113 / me=hex / subme=7 / psy=1 / psy_rd=1.00:0.00 / mixed_ref=1 / me_range=16 / chroma_me=1 / trellis=1 / 8x8dct=1 / cqm=0 / deadzone=21,11 / fast_pskip=1 / chroma_qp_offset=-2 / threads=34 / lookahead_threads=5 / sliced_threads=0 / nr=0 / decimate=1 / interlaced=0 / bluray_compat=0 / constrained_intra=0 / bframes=3 / b_pyramid=2 / b_adapt=1 / b_bias=0 / direct=1 / weightb=1 / open_gop=0 / weightp=2 / keyint=96 / keyint_min=96 / scenecut=40 / intra_refresh=0 / rc_lookahead=40 / rc=2pass / mbtree=1 / bitrate=8250 / ratetol=1.0 / qcomp=0.60 / qpmin=0 / qpmax=69 / qpstep=4 / cplxblur=20.0 / qblur=0.5 / vbv_maxrate=12375 / vbv_bufsize=6187 / nal_hrd=vbr / filler=0 / ip_ratio=1.40 / aq=1:1.00
Default : Yes
Forced : No
Color range : Limited
Color primaries : BT.709
Transfer characteristics : BT.709
Matrix coefficients : BT.709

Audio
ID : 2
Format : AC-3
Format/Info : Audio Coding 3
Commercial name : Dolby Digital
Codec ID : A_AC3
Duration : 30 min 18 s
Bit rate mode : Constant
Bit rate : 384 kb/s
Channel(s) : 6 channels
Channel layout : L R C LFE Ls Rs
Sampling rate : 48.0 kHz
Frame rate : 31.250 FPS (1536 SPF)
Compression mode : Lossy
Stream size : 83.2 MiB (4%)
Language : English
Service kind : Complete Main
Default : Yes
Forced : No

Text #1
ID : 3
Format : UTF-8
Codec ID : S_TEXT/UTF8
Codec ID/Info : UTF-8 Plain Text
Duration : 27 min 11 s
Bit rate : 52 b/s
Count of elements : 536
Stream size : 10.5 KiB (0%)
Language : English
Default : No
Forced : No

Text #2
ID : 4
Format : UTF-8
Codec ID : S_TEXT/UTF8
Codec ID/Info : UTF-8 Plain Text
Duration : 27 min 11 s
Bit rate : 52 b/s
Count of elements : 536
Stream size : 10.5 KiB (0%)
Title : SDH
Language : English
Default : No
Forced : No


SCREENSHOTS:








Files:

The.Human.Voice.2020.1080p.HMAX.WEBRip.DD5.1.x264-PLiSSKEN
  • RARBG.txt (0.0 KB)
  • The.Human.Voice.2020.1080p.HMAX.WEB-DL.DD5.1.x264-PLiSSKEN.mkv (1.8 GB)

Code:

  • http://tracker.trackerfix.com:80/announce
  • udp://9.rarbg.me:2750/announce
  • udp://9.rarbg.to:2980/announce
  • udp://tracker.thinelephant.org:12750/announce
  • udp://tracker.tallpenguin.org:15710/announce