The.Aviator.2004.BRRip.XviD.B4ND1T69

  • Category Movies
  • Type Divx/Xvid
  • Language English
  • Total size 1.8 GB
  • Uploaded By B4ND1T69
  • Downloads 90
  • Last checked Jun. 01st '21
  • Date uploaded May. 31st '21
  • Seeders 22
  • Leechers 6

Infohash : DF93D8B566B93B7DECC845F84DFDFFBAB72EF1C0

The.Aviator.2004.BRRip.XviD.B4ND1T69



Director Martin Scorsese
Writer John Logan
Stars Leonardo DiCaprio Cate Blanchett Kate Beckinsale

Plot/Story:
A biopic depicting the early years of legendary Director and aviator Howard Hughes' career from the late 1920s to the mid 1940s.

General
Complete name : The.Aviator.2004.BRRip.XviD.B4ND1T69.avi
Format : AVI
Format/Info : Audio Video Interleave
File size : 1.80 GiB
Duration : 2 h 50 min
Overall bit rate : 1 515 kb/s
Subtitles : Yes...Included

Video
ID : 0
Format : MPEG-4 Visual
Format profile : Advanced [email protected]
Format settings, BVOP : 2
Format settings, QPel : No
Format settings, GMC : No warppoints
Format settings, Matrix : Default (H.263)
Codec ID : XVID
Codec ID/Hint : XviD
Duration : 2 h 50 min
Bit rate : 1 374 kb/s
Width : 720 pixels
Height : 304 pixels
Display aspect ratio : 2.35:1
Frame rate : 24.390 FPS
Color space : YUV
Chroma subsampling : 4:2:0
Bit depth : 8 bits
Scan type : Progressive
Compression mode : Lossy
Bits/(Pixel*Frame) : 0.257
Stream size : 1.63 GiB (91%)
Writing library : XviD 64

Audio
ID : 1
Format : MPEG Audio
Format version : Version 1
Format profile : Layer 3
Codec ID : 55
Codec ID/Hint : MP3
Duration : 2 h 50 min
Bit rate mode : Constant
Bit rate : 128 kb/s
Channel(s) : 2 channels
Sampling rate : 48.0 kHz
Compression mode : Lossy
Stream size : 156 MiB (8%)
Alignment : Aligned on interleaves
Interleave, duration : 24 ms (0.59 video frame)

Screenshots:










Please Seed For As Long As Possible
Or At Least 1:1 Ratio...Thanks
Enjoy Peeps

Files:

The.Aviator.2004.BRRip.XviD.B4ND1T69
  • Downloaded from ProStyleX.txt (0.1 KB)
  • Downloaded from ETTV.txt (0.1 KB)
  • Downloaded from The Pirate Bay.txt (0.1 KB)
  • Downloaded from 1337x.txt (0.1 KB)
  • Downloaded from Glodls.to.txt (0.3 KB)
  • The.Aviator.2004.BRRip.XviD.B4ND1T69.srt (185.3 KB)
  • The.Aviator.2004.BRRip.XviD.B4ND1T69.avi (1.8 GB)

Code:

  • udp://tracker.opentrackr.org:1337/announce
  • udp://exodus.desync.com:6969/announce
  • udp://open.demonii.si:1337/announce
  • udp://9.rarbg.to:2750/announce
  • udp://open.stealth.si:80/announce
  • udp://tracker.uw0.xyz:6969/announce
  • udp://tracker.tiny-vps.com:6969/announce
  • udp://fasttracker.foreverpirates.co:6969/announce
  • udp://explodie.org:6969/announce
  • udp://tracker.cyberia.is:6969/announce
  • udp://ipv4.tracker.harry.lu:80/announce
  • udp://opentracker.i2p.rocks:6969/announce
  • udp://tracker.moeking.me:6969/announce
  • udp://opentor.org:2710/announce
  • udp://tracker.dler.org:6969/announce