Dragonheart.1996.REMASTERED.BRRip.XviD.B4ND1T69

  • Category Movies
  • Type Divx/Xvid
  • Language English
  • Total size 1.3 GB
  • Uploaded By B4ND1T69
  • Downloads 61
  • Last checked Jun. 01st '21
  • Date uploaded Jun. 01st '21
  • Seeders 16
  • Leechers 3

Infohash : 4A6081D29B5B1CEE5A0D8746E7657C9E008A0F24

Dragonheart.1996.REMASTERED.BRRip.XviD.B4ND1T69



Director Rob Cohen
Writers Patrick Read Johnson(story by), Charles Edward Pogue(story by)
Stars Dennis Quaid, Sean Connery(voice), Dina Meyer

Plot/Story:
The last dragon and a disillusioned dragonslaying Knight must cooperate to stop an evil King, who was given partial immortality.

General
Complete name : Dragonheart.1996.REMASTERED.BRRip.XviD.B4ND1T69.avi
Format : AVI
Format/Info : Audio Video Interleave
File size : 1.25 GiB
Duration : 1 h 42 min
Overall bit rate : 1 741 kb/s
Subtitles : Yes...Included(HI)

Video
ID : 0
Format : MPEG-4 Visual
Format profile : Advanced [email protected]
Format settings, BVOP : 2
Format settings, QPel : No
Format settings, GMC : No warppoints
Format settings, Matrix : Default (H.263)
Codec ID : XVID
Codec ID/Hint : XviD
Duration : 1 h 42 min
Bit rate : 1 600 kb/s
Width : 720 pixels
Height : 304 pixels
Display aspect ratio : 2.35:1
Frame rate : 23.976 (24000/1001) FPS
Color space : YUV
Chroma subsampling : 4:2:0
Bit depth : 8 bits
Scan type : Progressive
Compression mode : Lossy
Bits/(Pixel*Frame) : 0.305
Stream size : 1.15 GiB (92%)
Writing library : XviD 64

Audio
ID : 1
Format : MPEG Audio
Format version : Version 1
Format profile : Layer 3
Mode : Joint stereo
Mode extension : MS Stereo
Codec ID : 55
Codec ID/Hint : MP3
Duration : 59 min 10 s
Source duration : 1 h 42 min
Bit rate mode : Constant
Bit rate : 128 kb/s
Channel(s) : 2 channels
Sampling rate : 48.0 kHz
Compression mode : Lossy
Stream size : 94.2 MiB (7%)
Alignment : Aligned on interleaves
Interleave, duration : 24 ms (0.58 video frame)

Screenshots:










Please Seed For As Long As Possible
Or At Least 1:1 Ratio...Thanks
Enjoy Peeps

Files:

Dragonheart.1996.REMASTERED.BRRip.XviD.B4ND1T69
  • Downloaded from ProStyleX.txt (0.1 KB)
  • Downloaded from ETTV.txt (0.1 KB)
  • Downloaded from The Pirate Bay.txt (0.1 KB)
  • Downloaded from 1337x.txt (0.1 KB)
  • Downloaded from Glodls.to.txt (0.3 KB)
  • Dragonheart.1996.REMASTERED.BRRip.XviD.B4ND1T69.srt (72.4 KB)
  • Dragonheart.1996.REMASTERED.BRRip.XviD.B4ND1T69.avi (1.3 GB)

Code:

  • udp://tracker.opentrackr.org:1337/announce
  • udp://exodus.desync.com:6969/announce
  • udp://open.demonii.si:1337/announce
  • udp://9.rarbg.to:2750/announce
  • udp://open.stealth.si:80/announce
  • udp://tracker.uw0.xyz:6969/announce
  • udp://tracker.tiny-vps.com:6969/announce
  • udp://fasttracker.foreverpirates.co:6969/announce
  • udp://explodie.org:6969/announce
  • udp://tracker.cyberia.is:6969/announce
  • udp://ipv4.tracker.harry.lu:80/announce
  • udp://opentracker.i2p.rocks:6969/announce
  • udp://tracker.moeking.me:6969/announce
  • udp://opentor.org:2710/announce
  • udp://tracker.dler.org:6969/announce